<?xml version="1.0" standalone="no"?>
<!DOCTYPE svg PUBLIC "-//W3C//DTD SVG 1.1//EN" "http://www.w3.org/Graphics/SVG/1.1/DTD/svg11.dtd" >
<svg xmlns="http://www.w3.org/2000/svg">
<metadata></metadata>
<defs>
<font id="source_code_probold" horiz-adv-x="1228" >
<font-face units-per-em="2048" ascent="1536" descent="-512" />
<missing-glyph horiz-adv-x="500" />
<glyph />
<glyph />
<glyph unicode="&#xd;" />
<glyph unicode=" " />
<glyph unicode="!" d="M410 184q0 90 58 147.5t146 57.5t146.5 -57.5t58.5 -147.5q0 -92 -58.5 -150.5t-146.5 -58.5t-146 58.5t-58 150.5zM465 1372h299l-10 -272l-41 -578h-197l-41 578z" />
<glyph unicode="&#x22;" d="M168 1403h348l-10 -297l-72 -485h-184l-72 485zM713 1403h348l-10 -297l-72 -485h-184l-72 485z" />
<glyph unicode="#" d="M143 383v192h174l29 226h-162v192h187l43 338h172l-41 -338h213l43 338h172l-41 -338h162v-192h-187l-26 -226h172v-192h-195l-47 -383h-174l45 383h-211l-47 -383h-174l45 383h-152zM494 575h211l28 226h-213z" />
<glyph unicode="$" d="M131 236l131 204q103 -64 191 -95.5t180 -31.5q73 0 112 25t39 68q0 34 -33 62.5t-85.5 50t-116.5 44.5t-128 53.5t-116.5 69.5t-85.5 100t-33 138q0 131 90 219.5t246 113.5v269h201v-266q187 -24 328 -168l-150 -172q-76 54 -140 78t-145 24q-141 0 -141 -94 q0 -29 33 -53.5t85.5 -44.5t116 -42t127 -53t116 -70t85.5 -100t33 -137q0 -132 -90.5 -225.5t-257.5 -122.5v-305h-201v299q-104 11 -210.5 54t-180.5 108z" />
<glyph unicode="%" d="M35 207l383 354l104 -96l-332 -408zM49 985q0 155 85.5 247.5t217.5 92.5q133 0 219 -92.5t86 -247.5q0 -156 -86 -251t-219 -95q-131 0 -217 95t-86 251zM256 985q0 -97 27 -141.5t69 -44.5q43 0 71 44.5t28 141.5q0 178 -99 178q-96 0 -96 -178zM571 324 q0 155 86.5 247.5t219.5 92.5q132 0 217.5 -92.5t85.5 -247.5q0 -157 -86 -253t-217 -96q-133 0 -219.5 96t-86.5 253zM711 870l331 408l154 -150l-381 -356zM778 324q0 -97 28 -142t71 -45q42 0 69 44.5t27 142.5q0 178 -96 178q-99 0 -99 -178z" />
<glyph unicode="&#x26;" d="M47 356q0 121 57.5 207.5t157.5 159.5q-86 163 -86 287q0 147 91 248.5t239 101.5q150 0 235.5 -82t85.5 -221q0 -49 -15.5 -95.5t-36.5 -80.5t-60 -73.5t-66.5 -63t-75.5 -60.5q92 -117 240 -238q77 134 113 308h274q-64 -254 -186 -451q106 -67 186 -84l-72 -244 q-138 35 -282 129q-161 -129 -371 -129q-102 0 -184 30.5t-135 83t-81 121t-28 146.5zM332 375q0 -75 50.5 -122.5t131.5 -47.5q66 0 131 47q-151 132 -254 272q-59 -72 -59 -149zM424 1012q0 -71 39 -154q64 46 98.5 93t34.5 106q0 104 -84 104q-39 0 -63.5 -40.5 t-24.5 -108.5z" />
<glyph unicode="'" d="M440 1403h348l-10 -297l-71 -485h-185l-71 485z" />
<glyph unicode="(" d="M371 569q0 281 113 517t319 419l168 -133q-183 -178 -265.5 -369t-82.5 -434t82.5 -433.5t265.5 -368.5l-168 -134q-206 183 -319 419t-113 517z" />
<glyph unicode=")" d="M258 -233q183 178 265.5 368.5t82.5 433.5t-82.5 434t-265.5 369l168 133q206 -183 319 -419t113 -517t-113 -517t-319 -419z" />
<glyph unicode="*" d="M131 737l47 146l332 -88l25 364h159l25 -364l332 88l47 -146l-314 -139l199 -322l-131 -90l-238 291l-237 -291l-131 90l198 322z" />
<glyph unicode="+" d="M143 569v213h361v377h221v-377h360v-213h-360v-376h-221v376h-361z" />
<glyph unicode="," d="M373 -268q266 91 266 291q-12 -3 -23 -3q-91 0 -156 56t-65 153q0 93 66.5 152t163.5 59q124 0 189 -92t65 -260q0 -196 -109.5 -332t-320.5 -200z" />
<glyph unicode="-" d="M143 569v213h942v-213h-942z" />
<glyph unicode="." d="M377 215q0 103 66.5 172.5t170.5 69.5t171 -69.5t67 -172.5t-66.5 -171.5t-171.5 -68.5q-104 0 -170.5 68.5t-66.5 171.5z" />
<glyph unicode="/" d="M152 -328l673 1782h252l-674 -1782h-251z" />
<glyph unicode="0" d="M115 655q0 325 134 497.5t365 172.5t365.5 -172.5t134.5 -497.5t-135 -502.5t-365 -177.5t-364.5 177.5t-134.5 502.5zM383 655q0 -446 231 -446q232 0 232 446q0 437 -232 437q-231 0 -231 -437zM461 659q0 69 43.5 112.5t109.5 43.5t110 -43.5t44 -112.5t-44 -112 t-110 -43t-109.5 43t-43.5 112z" />
<glyph unicode="1" d="M168 0v244h336v751h-268v187q206 37 348 118h221v-1056h295v-244h-932z" />
<glyph unicode="2" d="M104 1118q106 107 213 157t252 50q205 0 332 -113.5t127 -300.5q0 -64 -26.5 -133.5t-68 -133.5t-106.5 -137t-129 -134.5t-147 -134.5q148 16 235 16h310v-254h-977v172q130 109 210 179t167.5 154.5t135 145t78.5 124t31 118.5q0 95 -55.5 146t-157.5 51 q-71 0 -133.5 -35.5t-128.5 -98.5z" />
<glyph unicode="3" d="M86 160l139 190q148 -131 318 -131q108 0 175.5 41t67.5 113q0 61 -33.5 100t-122.5 62.5t-237 23.5v213q350 0 350 174q0 67 -51.5 105.5t-140.5 38.5q-133 0 -277 -115l-151 184q207 166 442 166q216 0 347.5 -94.5t131.5 -261.5q0 -196 -247 -289v-8 q130 -34 210 -115.5t80 -202.5q0 -117 -72.5 -204.5t-188.5 -131t-255 -43.5q-318 0 -485 185z" />
<glyph unicode="4" d="M72 311v207l542 782h365v-759h164v-230h-164v-311h-281v311h-626zM362 541h336v219q0 58 11 284h-9q-23 -40 -72 -114.5t-69 -106.5z" />
<glyph unicode="5" d="M94 158l135 190q154 -129 308 -129q113 0 182 53t69 150q0 96 -65.5 148.5t-171.5 52.5q-62 0 -106 -14t-113 -52l-133 86l34 657h797v-253h-536l-23 -244q80 31 172 31t171.5 -25t141.5 -73t98 -127t36 -179q0 -139 -72 -244.5t-187 -158t-251 -52.5q-296 0 -486 183z " />
<glyph unicode="6" d="M123 621q0 176 47 314t126.5 221t178 126t209.5 43q130 0 236 -43.5t178 -112.5l-158 -180q-44 39 -106 65.5t-123 26.5q-63 0 -115 -21.5t-95 -68t-69.5 -127.5t-30.5 -192q67 66 153 103.5t161 37.5q179 0 290 -102t111 -299q0 -196 -136.5 -316.5t-330.5 -120.5 q-82 0 -157 23t-143 73.5t-117.5 124.5t-79 183t-29.5 242zM410 473q22 -145 85 -208.5t148 -63.5t142 53.5t57 157.5q0 96 -51.5 142t-141.5 46q-129 0 -239 -127z" />
<glyph unicode="7" d="M127 1047v253h977v-184q-83 -92 -143 -173t-103.5 -166.5t-71 -164t-45.5 -179.5t-27 -198t-16 -235h-303q19 333 102 564.5t283 482.5h-653z" />
<glyph unicode="8" d="M125 332q0 111 66 187t180 132v8q-191 133 -191 308q0 164 123.5 261t319.5 97q195 0 310.5 -97t115.5 -259q0 -85 -51.5 -158t-135.5 -127v-8q115 -57 179.5 -137t64.5 -203q0 -159 -131.5 -260t-362.5 -101q-223 0 -355 98.5t-132 258.5zM385 367q0 -84 66.5 -133.5 t169.5 -49.5q94 0 149 41.5t55 120.5q0 52 -40.5 92.5t-83 60t-150.5 59.5q-8 3 -13 5l-12.5 5t-13.5 5q-127 -91 -127 -206zM444 967q0 -73 64 -119t194 -90q99 88 99 190q0 76 -48.5 122t-136.5 46q-76 0 -124 -38.5t-48 -110.5z" />
<glyph unicode="9" d="M109 889q0 196 136 316t330 120q82 0 157.5 -22.5t143.5 -73t118 -124.5t79 -183t29 -242q0 -176 -46.5 -314t-126 -221.5t-178 -126.5t-208.5 -43q-129 0 -235 43.5t-181 112.5l160 180q42 -39 104.5 -65.5t124.5 -26.5t114 22t95 68.5t69.5 128.5t30.5 193 q-70 -67 -155 -105.5t-158 -38.5q-179 0 -291 102.5t-112 299.5zM383 889q0 -96 51.5 -142.5t143.5 -46.5q129 0 239 129q-23 143 -86.5 207t-148.5 64q-84 0 -141.5 -53.5t-57.5 -157.5z" />
<glyph unicode=":" d="M377 215q0 103 66.5 172.5t170.5 69.5t171 -69.5t67 -172.5t-66.5 -171.5t-171.5 -68.5q-104 0 -170.5 68.5t-66.5 171.5zM377 879q0 101 66.5 170t170.5 69t171 -69t67 -170q0 -103 -67 -172.5t-171 -69.5t-170.5 69.5t-66.5 172.5z" />
<glyph unicode=";" d="M373 -268q266 91 266 291q-12 -3 -23 -3q-91 0 -156 56t-65 153q0 93 66.5 152t163.5 59q124 0 189 -92t65 -260q0 -196 -109.5 -332t-320.5 -200zM377 879q0 101 66.5 170t170.5 69t171 -69t67 -170q0 -103 -67 -172.5t-171 -69.5t-170.5 69.5t-66.5 172.5z" />
<glyph unicode="&#x3c;" d="M238 575v209l790 512v-272l-543 -340v-8l543 -340v-273z" />
<glyph unicode="=" d="M143 332v211h942v-211h-942zM143 809v211h942v-211h-942z" />
<glyph unicode="&#x3e;" d="M201 63v273l542 340v8l-542 340v272l790 -512v-209z" />
<glyph unicode="?" d="M201 1212q77 86 178.5 135.5t218.5 49.5q186 0 303 -86t117 -248q0 -54 -18.5 -101.5t-47.5 -82t-63.5 -66.5t-68.5 -63t-61 -63t-41 -74.5t-9 -90.5h-263q-9 56 1.5 106t35 87.5t56 71t65 62.5t61.5 56.5t46 58t18 60.5q0 62 -42 95.5t-109 33.5q-105 0 -209 -94z M381 184q0 90 58.5 147.5t146.5 57.5t146.5 -57.5t58.5 -147.5q0 -92 -58.5 -150.5t-146.5 -58.5t-146.5 58.5t-58.5 150.5z" />
<glyph unicode="@" d="M63 518q0 162 32 295.5t88 226.5t134 156.5t168.5 93t192.5 29.5q114 0 201 -38.5t140 -107t80 -158.5t27 -198v-612h-159l-23 104h-8q-87 -129 -246 -129q-112 0 -186 83t-74 204q0 65 23.5 117.5t66 90.5t107 66.5t140.5 47t173 30.5v33q0 122 -69 204.5t-199 82.5 q-60 0 -116 -21.5t-108.5 -70.5t-91.5 -120.5t-62.5 -178.5t-23.5 -238q0 -154 36.5 -277t98 -198t138 -114.5t162.5 -39.5q85 0 144.5 19t127.5 59l86 -149q-94 -55 -180 -83t-189 -28q-100 0 -191.5 31t-172 97.5t-140 161.5t-93.5 230.5t-34 298.5zM649 475q0 -46 29 -72 t80 -26q77 0 151 74v188q-143 -23 -201.5 -60t-58.5 -104z" />
<glyph unicode="A" d="M18 0l416 1335h361l415 -1335h-319l-80 317h-403l-82 -317h-308zM469 553h281l-31 123q-20 77 -58 232t-49 198h-8q-74 -315 -104 -430z" />
<glyph unicode="B" d="M172 0v1335h418q109 0 193.5 -16t153.5 -53t105.5 -103t36.5 -159q0 -97 -58.5 -178.5t-170.5 -110.5v-8q291 -54 291 -314q0 -132 -69 -222t-181.5 -130.5t-261.5 -40.5h-457zM473 233h131q242 0 242 183q0 87 -58.5 127.5t-183.5 40.5h-131v-351zM473 797h102 q209 0 209 164q0 74 -49.5 107.5t-156.5 33.5h-105v-305z" />
<glyph unicode="C" d="M113 659q0 162 49.5 295.5t135.5 221.5t202 136t250 48q221 0 395 -170l-166 -186q-106 96 -229 96q-144 0 -236 -116.5t-92 -313.5q0 -202 93.5 -318t246.5 -116q129 0 237 118l166 -182q-170 -197 -422 -197q-130 0 -243.5 44.5t-200 128.5t-136.5 215.5t-50 295.5z " />
<glyph unicode="D" d="M133 0v1335h363q147 0 264 -39.5t202.5 -118.5t131 -206.5t45.5 -296.5t-45.5 -298.5t-129 -211t-197.5 -123t-255 -41.5h-379zM436 244h43q167 0 258.5 101t91.5 329q0 117 -24.5 199.5t-72.5 129.5t-109.5 68t-143.5 21h-43v-848z" />
<glyph unicode="E" d="M193 0v1335h880v-254h-579v-268h491v-252h-491v-307h600v-254h-901z" />
<glyph unicode="F" d="M221 0v1335h881v-254h-580v-309h494v-254h-494v-518h-301z" />
<glyph unicode="G" d="M90 659q0 163 47.5 297t131 221.5t196 135t242.5 47.5q221 0 391 -170l-166 -186q-47 47 -99 71.5t-126 24.5q-134 0 -220 -116.5t-86 -313.5q0 -208 81 -321t237 -113q88 0 131 40v230h-195v246h465v-615q-73 -68 -185.5 -115t-232.5 -47q-129 0 -240 44.5t-194 128.5 t-130.5 215.5t-47.5 295.5z" />
<glyph unicode="H" d="M131 0v1335h301v-514h365v514h301v-1335h-301v557h-365v-557h-301z" />
<glyph unicode="I" d="M152 0v254h311v827h-311v254h925v-254h-311v-827h311v-254h-925z" />
<glyph unicode="J" d="M121 197l174 186q119 -147 254 -147q107 0 157 54.5t50 188.5v604h-523v252h824v-880q0 -81 -16 -150.5t-53.5 -131t-93.5 -105t-141.5 -68.5t-193.5 -25q-122 0 -239 53.5t-199 168.5z" />
<glyph unicode="K" d="M139 0v1335h305v-547h7l395 547h332l-400 -532l439 -803h-334l-283 563l-156 -205v-358h-305z" />
<glyph unicode="L" d="M219 0v1335h301v-1081h594v-254h-895z" />
<glyph unicode="M" d="M133 0v1335h301l135 -473l45 -184h7l45 184l129 473h301v-1335h-244v436q0 206 39 604h-6l-105 -366l-102 -318h-133l-103 318l-100 366h-8q39 -398 39 -604v-436h-240z" />
<glyph unicode="N" d="M135 0v1335h307l283 -665l115 -293h8q-3 34 -16 142.5t-20 190.5t-7 152v473h289v-1335h-308l-282 666l-115 290h-8q4 -43 16.5 -145.5t19.5 -184.5t7 -153v-473h-289z" />
<glyph unicode="O" d="M78 674q0 322 147 504t389 182t389.5 -183t147.5 -503q0 -323 -148 -511t-389 -188t-388.5 188t-147.5 511zM387 674q0 -201 61.5 -319.5t165.5 -118.5t166 118.5t62 319.5q0 198 -61.5 312t-166.5 114t-166 -113.5t-61 -312.5z" />
<glyph unicode="P" d="M152 0v1335h487q90 0 165.5 -13.5t142.5 -45t113.5 -80t73.5 -122.5t27 -169q0 -114 -41.5 -202t-114 -142t-165 -81t-201.5 -27h-186v-453h-301zM453 692h168q243 0 243 213q0 102 -60 146.5t-183 44.5h-168v-404z" />
<glyph unicode="Q" d="M74 674q0 322 145.5 504t388.5 182q241 0 387 -182.5t146 -503.5q0 -259 -96 -434t-263 -236q62 -127 244 -127q53 0 109 27l53 -226q-77 -43 -197 -43q-188 0 -323 97.5t-201 261.5q-183 52 -288 229.5t-105 450.5zM383 674q0 -202 60 -320t165 -118q104 0 165 118.5 t61 319.5q0 199 -60.5 312.5t-165.5 113.5q-106 0 -165.5 -113t-59.5 -313z" />
<glyph unicode="R" d="M143 0v1335h473q88 0 162.5 -12.5t141.5 -42.5t113 -76.5t73 -118.5t27 -165q0 -142 -63.5 -238.5t-174.5 -146.5l301 -535h-338l-256 481h-158v-481h-301zM444 721h148q120 0 182 50.5t62 148.5q0 95 -60 135.5t-184 40.5h-148v-375z" />
<glyph unicode="S" d="M102 168l174 207q78 -64 167.5 -101.5t174.5 -37.5q201 0 201 129q0 29 -10 50t-43.5 41t-54.5 29t-84 33q-3 1 -5 2t-5 2t-5 2l-172 74q-125 46 -204.5 137t-79.5 228q0 168 137.5 282.5t351.5 114.5q123 0 239 -45.5t206 -130.5l-154 -191q-73 54 -141 80.5t-150 26.5 q-87 0 -135.5 -32t-48.5 -89q0 -37 30 -66t62.5 -43.5t110.5 -42.5q3 -1 5 -2t5 -2l6 -2l162 -69q286 -107 286 -363q0 -83 -35 -158t-99 -132t-163.5 -90.5t-220.5 -33.5q-137 0 -269.5 49.5t-238.5 143.5z" />
<glyph unicode="T" d="M63 1081v254h1102v-254h-399v-1081h-303v1081h-400z" />
<glyph unicode="U" d="M131 514v821h301v-852q0 -247 186 -247q189 0 189 247v852h291v-821q0 -263 -120 -401t-360 -138q-242 0 -364.5 138.5t-122.5 400.5z" />
<glyph unicode="V" d="M31 1335h319l160 -622q22 -79 55.5 -221.5t50.5 -206.5h9q22 79 56 220.5t52 207.5l158 622h307l-401 -1335h-363z" />
<glyph unicode="W" d="M8 1335h307l43 -710q1 -58 4.5 -171t4.5 -169h6q12 66 38.5 187.5t32.5 152.5l93 370h182l88 -370q9 -50 34 -164.5t36 -175.5h8q2 56 5 169.5t5 170.5l39 710h287l-166 -1335h-316l-84 420q-29 154 -37 256h-6q-13 -130 -37 -256l-79 -420h-310z" />
<glyph unicode="X" d="M37 0l389 686l-367 649h338l129 -252q17 -33 51 -106t52 -109h8q58 148 90 215l119 252h323l-366 -663l389 -672h-336l-145 272q-53 100 -107 220h-8q-33 -83 -98 -220l-140 -272h-321z" />
<glyph unicode="Y" d="M33 1335h323l136 -321q21 -54 61 -155.5t59 -149.5h9q13 33 56.5 139.5t67.5 165.5l136 321h315l-430 -884v-451h-303v451z" />
<glyph unicode="Z" d="M115 0v182l626 901h-567v252h938v-182l-625 -899h633v-254h-1005z" />
<glyph unicode="[" d="M412 -311v1761h604v-160h-375v-1442h375v-159h-604z" />
<glyph unicode="\" d="M152 1454h251l674 -1782h-252z" />
<glyph unicode="]" d="M215 -152h373v1442h-373v160h604v-1761h-604v159z" />
<glyph unicode="^" d="M176 561l318 811h241l318 -811h-248l-94 262l-93 277h-8l-92 -277l-94 -262h-248z" />
<glyph unicode="_" d="M123 -111h983v-225h-983v225z" />
<glyph unicode="`" d="M293 1518h307l182 -342h-219z" />
<glyph unicode="a" d="M125 283q0 172 156.5 260t513.5 110q-8 71 -62 109.5t-155 38.5q-120 0 -310 -94l-106 196q238 137 475 137q219 0 339 -115t120 -343v-582h-246l-23 115h-8q-183 -140 -360 -140q-151 0 -242.5 88t-91.5 220zM414 305q0 -96 141 -96q114 0 240 96v168q-144 -8 -231 -32 t-118.5 -56.5t-31.5 -79.5z" />
<glyph unicode="b" d="M147 0v1436h302v-353l-9 -159q60 55 134.5 85.5t148.5 30.5q189 0 299.5 -139.5t110.5 -374.5q0 -127 -37 -233t-98.5 -174.5t-140.5 -106t-165 -37.5q-146 0 -276 136h-8l-25 -111h-236zM449 289q79 -68 176 -68q89 0 143.5 74.5t54.5 224.5q0 275 -186 275 q-97 0 -188 -95v-411z" />
<glyph unicode="c" d="M137 508q0 123 47.5 225t129 168.5t187.5 102.5t224 36q116 0 215 -37t166 -100l-139 -186q-113 80 -226 80q-132 0 -213.5 -79t-81.5 -210t79 -210t206 -79q132 0 268 96l123 -190q-89 -74 -200 -112t-220 -38q-161 0 -288 62t-202 184t-75 287z" />
<glyph unicode="d" d="M96 508q0 121 36.5 223t97.5 168.5t139 103.5t161 37q82 0 142 -27t119 -81l-11 158v346h301v-1436h-245l-23 104h-6q-60 -58 -134.5 -93.5t-148.5 -35.5q-195 0 -311.5 143t-116.5 390zM406 512q0 -291 196 -291q105 0 178 94v412q-76 68 -170 68q-89 0 -146.5 -72.5 t-57.5 -210.5z" />
<glyph unicode="e" d="M113 508q0 160 76.5 283.5t195.5 186t256 62.5q227 0 352 -136t125 -351q0 -58 -12 -133h-684q14 -109 94.5 -162t200.5 -53q124 0 262 69l98 -180q-86 -56 -193 -87.5t-208 -31.5q-118 0 -221 36.5t-179 103.5t-119.5 168.5t-43.5 224.5zM418 618h428q0 90 -50 141.5 t-149 51.5q-85 0 -147 -49t-82 -144z" />
<glyph unicode="f" d="M168 780v224l268 12v26q0 89 27 164t81 132.5t142.5 89.5t204.5 32q144 0 307 -55l-57 -221q-98 39 -213 39q-97 0 -144 -43.5t-47 -135.5v-28h350v-236h-350v-780h-301v780h-268z" />
<glyph unicode="g" d="M106 -172q0 126 158 203v8q-102 65 -102 174q0 50 33 101.5t88 88.5v9q-59 39 -96 107t-37 153q0 117 61.5 202.5t158 125.5t214.5 40q94 0 168 -24h411v-219h-207q48 -60 48 -135q0 -167 -116.5 -253.5t-303.5 -86.5q-67 0 -140 20q-45 -33 -45 -74t41 -59.5t131 -18.5 h189q205 0 308 -61.5t103 -194.5q0 -162 -165 -264t-439 -102q-136 0 -237 26.5t-162.5 86t-61.5 147.5zM352 -127q0 -56 68.5 -86.5t189.5 -30.5q120 0 197.5 36t77.5 89q0 47 -42 63.5t-136 16.5h-127q-100 0 -156 12q-72 -47 -72 -100zM432 672q0 -80 43 -124t109 -44 t110.5 44t44.5 124q0 78 -44.5 122t-110.5 44t-109 -43.5t-43 -122.5z" />
<glyph unicode="h" d="M147 0v1436h302v-353l-17 -194q155 151 344 151q166 0 248 -108t82 -305v-627h-301v588q0 103 -34 149.5t-116 46.5q-58 0 -103 -24.5t-103 -81.5v-678h-302z" />
<glyph unicode="i" d="M162 780v236h708v-1016h-301v780h-407zM506 1348q0 83 56.5 135.5t144.5 52.5t144 -52.5t56 -135.5t-55.5 -133t-144.5 -50t-145 50.5t-56 132.5z" />
<glyph unicode="j" d="M86 -332l88 215q109 -49 207 -49q106 0 147 50.5t41 164.5v731h-407v236h708v-955q0 -462 -471 -462q-165 0 -313 69zM506 1348q0 83 56.5 135.5t144.5 52.5t144 -52.5t56 -135.5t-55.5 -133t-144.5 -50t-145 50.5t-56 132.5z" />
<glyph unicode="k" d="M156 0v1436h301v-830h8l373 410h329l-385 -418l416 -598h-326l-266 414l-149 -158v-256h-301z" />
<glyph unicode="l" d="M127 1198v238h596v-1051q0 -87 46.5 -126.5t117.5 -39.5q77 0 160 33l67 -221q-68 -21 -101 -30t-88.5 -17.5t-115.5 -8.5q-189 0 -288 112.5t-99 309.5v801h-295z" />
<glyph unicode="m" d="M74 0v1016h225l23 -127h8q70 151 217 151q68 0 113.5 -42.5t64.5 -123.5q30 75 86 120.5t137 45.5q106 0 166 -87.5t60 -239.5v-713h-283v690q0 94 -57 94q-55 0 -95 -98v-686h-231v690q0 94 -59 94q-28 0 -49 -23t-44 -75v-686h-282z" />
<glyph unicode="n" d="M147 0v1016h246l23 -135h8q163 159 350 159q168 0 250 -107.5t82 -305.5v-627h-301v588q0 103 -34 149.5t-116 46.5q-58 0 -103 -24.5t-103 -81.5v-678h-302z" />
<glyph unicode="o" d="M96 508q0 123 43 225t115.5 168.5t165.5 102.5t194 36t194 -36.5t165.5 -102.5t116 -168t43.5 -225t-43.5 -225.5t-116 -168.5t-165.5 -102.5t-194 -36.5t-194 36.5t-165.5 102.5t-115.5 168.5t-43 225.5zM406 508q0 -135 53 -212t155 -77t155.5 77t53.5 212t-53.5 212 t-155.5 77t-155 -77t-53 -212z" />
<glyph unicode="p" d="M147 -377v1393h246l23 -103h6q64 58 144 92.5t159 34.5q189 0 298.5 -140t109.5 -376q0 -126 -37 -231.5t-98.5 -174t-140.5 -106t-165 -37.5q-140 0 -254 111l11 -166v-297h-302zM449 289q79 -68 174 -68q90 0 145 74.5t55 224.5q0 275 -186 275q-97 0 -188 -95v-411z " />
<glyph unicode="q" d="M96 508q0 121 36.5 223t97.5 168.5t139 103.5t161 37q86 0 153 -30.5t130 -98.5h8l25 105h235v-1393h-301v314l13 155q-56 -53 -127.5 -85t-141.5 -32q-195 0 -311.5 143t-116.5 390zM406 512q0 -291 196 -291q105 0 178 94v412q-76 68 -170 68q-89 0 -146.5 -72.5 t-57.5 -210.5z" />
<glyph unicode="r" d="M238 0v1016h245l25 -221h6q73 122 180 183.5t232 61.5q64 0 106 -9.5t90 -31.5l-61 -251q-98 28 -180 28q-102 0 -191.5 -59.5t-150.5 -188.5v-528h-301z" />
<glyph unicode="s" d="M109 131l135 188q190 -120 368 -120q195 0 195 86q0 42 -64.5 72t-207.5 69q-363 100 -363 297q0 143 126.5 230t342.5 87q221 0 438 -139l-135 -180q-161 96 -297 96q-176 0 -176 -80q0 -15 8.5 -28t28.5 -24.5t38.5 -20.5t54.5 -20t60 -17.5t70 -18.5q84 -22 145 -46 t116.5 -59.5t84.5 -86t29 -113.5q0 -144 -131.5 -236t-368.5 -92q-130 0 -262 43.5t-235 112.5z" />
<glyph unicode="t" d="M100 780v224l271 12l39 270h247v-270h430v-236h-430v-356q0 -114 50.5 -163.5t162.5 -49.5q94 0 203 37l53 -217q-187 -56 -331 -56q-439 0 -439 447v358h-256z" />
<glyph unicode="u" d="M127 389v627h301v-588q0 -105 32.5 -151t114.5 -46q58 0 103 25.5t96 91.5v668h301v-1016h-246l-22 145h-8q-150 -170 -342 -170q-168 0 -249 107.5t-81 306.5z" />
<glyph unicode="v" d="M63 1016h304l159 -479q2 -5 92 -314h9q9 29 40 142t50 172l160 479h288l-372 -1016h-347z" />
<glyph unicode="w" d="M8 1016h295l62 -471q7 -51 17 -151t17 -150h7q20 173 47 301l63 336h211l68 -336q32 -180 49 -301h8q7 50 16.5 150t16.5 151l61 471h275l-158 -1016h-348l-58 338q-23 157 -39 299h-8q-18 -168 -37 -299l-55 -338h-342z" />
<glyph unicode="x" d="M76 0l352 528l-330 488h324l104 -164q14 -25 32 -54.5t40.5 -65t34.5 -54.5h8q39 82 84 174l90 164h315l-331 -522l352 -494h-324l-116 168q-18 28 -58 88t-59 88h-8q-45 -83 -94 -176l-101 -168h-315z" />
<glyph unicode="y" d="M63 1016h299l170 -436q40 -104 103 -306h8q19 72 92 306l150 436h284l-401 -1026q-77 -202 -183.5 -294.5t-291.5 -92.5q-84 0 -156 20l53 230q44 -13 80 -13q158 0 213 133l21 54z" />
<glyph unicode="z" d="M143 0v162l533 618h-467v236h883v-160l-533 -620h549v-236h-965z" />
<glyph unicode="{" d="M217 481v176q152 3 216.5 46t64.5 106q0 61 -10.5 169t-10.5 181q0 162 89.5 226.5t291.5 64.5h158v-160h-84q-127 0 -168 -28t-41 -115q0 -53 5 -162.5t5 -171.5q0 -115 -47 -168t-158 -72v-8q111 -19 158 -71.5t47 -167.5q0 -64 -5 -172t-5 -162q0 -87 41 -115.5 t168 -28.5h84v-159h-158q-202 0 -291.5 64.5t-89.5 226.5q0 74 10.5 181t10.5 169q0 63 -64.5 105.5t-216.5 45.5z" />
<glyph unicode="|" d="M481 -512v2048h267v-2048h-267z" />
<glyph unicode="}" d="M215 -152h84q125 0 166 28.5t41 115.5q0 54 -4 162t-4 172q0 115 46 167.5t158 71.5v8q-112 19 -158 72t-46 168q0 62 4 171.5t4 162.5q0 86 -40.5 114.5t-166.5 28.5h-84v160h158q202 0 291.5 -64.5t89.5 -226.5q0 -73 -11.5 -181t-11.5 -169q0 -63 65 -106t218 -46 v-176q-153 -3 -218 -45.5t-65 -105.5q0 -62 11.5 -169t11.5 -181q0 -162 -89.5 -226.5t-291.5 -64.5h-158v159z" />
<glyph unicode="~" d="M106 563q120 297 334 297q47 0 90.5 -16t75.5 -39t62 -45.5t62 -38.5t63 -16q92 0 149 167l180 -84q-120 -296 -334 -296q-47 0 -90 16t-75.5 39t-62 45.5t-61.5 38.5t-63 16q-42 0 -81 -42.5t-68 -125.5z" />
<glyph unicode="&#xa0;" />
<glyph unicode="&#xa1;" d="M410 831q0 92 58 150.5t146 58.5t146.5 -58.5t58.5 -150.5q0 -90 -58 -147t-147 -57q-88 0 -146 57t-58 147zM465 -356l10 272l41 578h197l41 -578l10 -272h-299z" />
<glyph unicode="&#xa2;" d="M197 629q0 211 121.5 346t318.5 168v198h166v-190q157 -15 254 -115l-137 -184q-61 49 -117 55v-557q74 13 147 72l121 -191q-115 -100 -268 -120v-195h-166v195q-203 27 -321.5 163t-118.5 355zM489 629q0 -93 38 -159t110 -97v512q-148 -65 -148 -256z" />
<glyph unicode="&#xa3;" d="M137 0v186q109 43 175.5 125.5t66.5 188.5q0 28 -6 55h-230v176l172 10q-39 107 -39 164q0 191 130 305.5t337 114.5q231 0 381 -166l-161 -164q-83 86 -191 86q-101 0 -156 -48t-55 -144q0 -53 27 -148h346v-186h-299q4 -36 4 -57q0 -72 -25.5 -126t-85.5 -110v-8h598 v-254h-989z" />
<glyph unicode="&#xa4;" d="M74 281l166 168q-70 95 -70 227q0 130 68 223l-164 168l149 152l183 -185q97 51 208 51q107 0 209 -51l183 185l149 -152l-166 -168q70 -92 70 -223q0 -129 -72 -227l168 -168l-149 -152l-185 186q-94 -49 -207 -49q-112 0 -206 49l-185 -186zM438 676q0 -90 50.5 -145.5 t125.5 -55.5t126 55.5t51 145.5q0 89 -51 145t-126 56t-125.5 -56t-50.5 -145z" />
<glyph unicode="&#xa5;" d="M63 1300h310l125 -272q13 -31 36 -85.5t42.5 -99t37.5 -83.5h9q5 11 49 113.5t67 154.5l125 272h301l-334 -600h281v-143h-348v-113h348v-143h-348v-301h-301v301h-346v143h346v113h-346v143h280z" />
<glyph unicode="&#xa6;" d="M481 418h267v-930h-267v930zM481 639v897h267v-897h-267z" />
<glyph unicode="&#xa7;" d="M145 668q0 76 45.5 146t122.5 116q-59 72 -59 170q0 140 97.5 226.5t266.5 86.5q200 0 373 -133l-139 -188q-112 98 -217 98q-111 0 -111 -80q0 -29 31 -55t80 -48.5t109 -48t119.5 -59.5t108.5 -75t80 -104t31 -138q0 -171 -172 -273q47 -70 47 -157 q0 -143 -103.5 -233.5t-289.5 -90.5q-118 0 -225.5 44t-173.5 128l172 154q105 -105 227 -105q61 0 92 24t31 64q0 32 -30 59t-78 49t-105.5 46t-115.5 57t-106 74t-78 104.5t-30 141.5zM399 690q0 -37 20.5 -67t60.5 -55t80 -43.5t99 -44.5t97 -46q73 46 73 123 q0 31 -15.5 58t-39.5 46.5t-62.5 40t-72 35t-82.5 35.5t-82 37q-76 -45 -76 -119z" />
<glyph unicode="&#xa8;" d="M229 1331q0 68 46 114t116 46t115 -46t45 -114q0 -70 -45 -116t-115 -46t-116 46.5t-46 115.5zM678 1331q0 68 45 114t115 46t115.5 -46t45.5 -114q0 -69 -45.5 -115.5t-115.5 -46.5t-115 46t-45 116z" />
<glyph unicode="&#xa9;" d="M39 666q0 155 46 283.5t125 213.5t183 131.5t221 46.5t221.5 -46.5t183.5 -131.5t125 -213.5t46 -283.5t-46.5 -285t-125 -216.5t-183 -134.5t-221.5 -48t-221 48t-183 134.5t-125 216.5t-46 285zM170 666q0 -252 122 -406t322 -154t322.5 154t122.5 406 q0 251 -122.5 402t-322.5 151t-322 -151t-122 -402zM285 664q0 174 104.5 283.5t249.5 109.5q128 0 229 -101l-112 -125q-50 50 -99 50q-73 0 -114 -61.5t-41 -155.5q0 -105 39 -166.5t106 -61.5q57 0 123 49l96 -139q-106 -86 -227 -86q-156 0 -255 110t-99 294z" />
<glyph unicode="&#xaa;" d="M315 719q0 108 95.5 168t304.5 80q-3 42 -32.5 65t-82.5 23q-76 0 -186 -60l-76 138q153 90 305 90q135 0 210 -77.5t75 -232.5v-381h-174l-15 68h-4q-101 -84 -205 -84q-95 0 -155 59t-60 144zM520 737q0 -29 21 -44t57 -15q64 0 117 53v109q-195 -24 -195 -103z" />
<glyph unicode="&#xab;" d="M86 367v299l350 315l127 -113l-260 -352l260 -352l-127 -113zM631 367v299l350 315l127 -113l-260 -352l260 -352l-127 -113z" />
<glyph unicode="&#xac;" d="M143 569v213h942v-589h-221v376h-721z" />
<glyph unicode="&#xad;" d="M143 569v213h942v-213h-942z" />
<glyph unicode="&#xae;" d="M207 1051q0 179 117.5 296t287.5 117q171 0 288.5 -117t117.5 -296t-117.5 -296.5t-288.5 -117.5q-170 0 -287.5 117.5t-117.5 296.5zM317 1051q0 -141 82.5 -227.5t212.5 -86.5t212.5 86.5t82.5 227.5t-82.5 227t-212.5 86t-212.5 -86t-82.5 -227zM446 852v403h183 q75 0 120.5 -34t45.5 -101q0 -76 -72 -110l86 -158h-123l-61 123h-60v-123h-119zM565 1057h41q31 0 47.5 16t16.5 41q0 23 -16 38t-46 15h-43v-110z" />
<glyph unicode="&#xaf;" d="M332 1212v191h565v-191h-565z" />
<glyph unicode="&#xb0;" d="M319 1110q0 128 85.5 211.5t211.5 83.5t210.5 -83.5t84.5 -211.5t-84.5 -211.5t-210.5 -83.5t-211.5 83.5t-85.5 211.5zM479 1110q0 -68 38 -110t99 -42t99.5 42t38.5 110q0 66 -38.5 108t-99.5 42t-99 -42t-38 -108z" />
<glyph unicode="&#xb1;" d="M143 0v213h942v-213h-942zM143 602v213h361v344h221v-344h360v-213h-360v-278h-221v278h-361z" />
<glyph unicode="&#xb2;" d="M324 1432q126 133 272 133q122 0 195 -60t73 -164q0 -64 -44.5 -126.5t-123.5 -135.5h191v-178h-535v113q301 197 301 291q0 39 -23.5 61.5t-66.5 22.5q-61 0 -112 -72z" />
<glyph unicode="&#xb3;" d="M338 963l84 135q35 -25 81 -42.5t87 -17.5q37 0 61.5 15.5t24.5 44.5q0 71 -150 71v113q125 0 125 66q0 25 -21 40t-59 15q-51 0 -135 -51l-86 127q48 38 119.5 62t151.5 24q103 0 173 -51.5t70 -131.5q0 -57 -25 -90.5t-85 -54.5q135 -38 135 -156q0 -89 -79 -146.5 t-194 -57.5q-163 0 -278 86z" />
<glyph unicode="&#xb4;" d="M446 1176l183 342h307l-270 -342h-220z" />
<glyph unicode="&#xb5;" d="M127 -401v1417h301v-588q0 -106 35 -151.5t106 -45.5q62 0 110.5 36t94.5 122v627h303q-20 -476 -20 -713q0 -84 71 -84q21 0 37 4l37 -223q-62 -25 -151 -25q-190 0 -244 193h-8q-41 -88 -104.5 -135t-139.5 -47q-101 0 -145 51q7 -298 22 -438h-305z" />
<glyph unicode="&#xb6;" d="M98 879q0 100 25.5 179t69.5 130.5t106.5 85t133 47.5t153.5 14h86v-932h-82q-102 0 -190.5 31t-156 89t-106.5 150t-39 206zM778 -164v1499h299v-1499h-299z" />
<glyph unicode="&#xb7;" d="M377 725q0 101 66.5 170.5t170.5 69.5t171 -69.5t67 -170.5q0 -103 -67 -172.5t-171 -69.5t-170.5 69.5t-66.5 172.5z" />
<glyph unicode="&#xb8;" d="M408 -332q167 17 167 90q0 28 -26 49t-92 37l82 164h176l-41 -96q119 -40 119 -152q0 -67 -52 -115t-130.5 -70.5t-180.5 -27.5z" />
<glyph unicode="&#xb9;" d="M401 1335v131q74 10 117 25.5t98 48.5h170v-639h-219v434h-166z" />
<glyph unicode="&#xba;" d="M272 868q0 161 100.5 258t241.5 97t241.5 -97t100.5 -258t-100 -256.5t-242 -95.5t-242 95.5t-100 256.5zM489 868q0 -86 31 -135t94 -49q125 0 125 184q0 185 -125 185q-63 0 -94 -49t-31 -136z" />
<glyph unicode="&#xbb;" d="M121 164l260 352l-260 352l127 113l350 -315v-299l-350 -316zM666 164l260 352l-260 352l127 113l350 -315v-299l-350 -316z" />
<glyph unicode="&#xbc;" d="M35 207l381 354l104 -96l-332 -408zM141 1098v131q75 9 119 24t96 47h170v-636h-219v434h-166zM590 125v104l246 410h274v-379h104v-135h-104v-125h-192v125h-328zM709 870l331 408l154 -150l-381 -356zM784 260h134v45l10 203h-6l-70 -127z" />
<glyph unicode="&#xbd;" d="M35 207l381 354l104 -96l-332 -408zM141 1098v131q75 9 119 24t96 47h170v-636h-219v434h-166zM584 530q127 134 272 134q122 0 194 -60t72 -164q0 -64 -44 -127t-122 -135h191v-178h-535v113q301 199 301 290q0 39 -24 61.5t-66 22.5q-61 0 -114 -71zM709 870l331 408 l154 -150l-381 -356z" />
<glyph unicode="&#xbe;" d="M49 207l381 354l105 -96l-332 -408zM76 723l84 135q34 -25 81.5 -42t88.5 -17q37 0 61.5 15.5t24.5 43.5q0 72 -150 72v114q123 0 123 66q0 25 -20.5 39t-57.5 14q-58 0 -135 -51l-88 129q108 84 272 84q102 0 172 -50t70 -130q0 -59 -24.5 -93t-85.5 -55 q137 -38 137 -155q0 -88 -80 -145.5t-193 -57.5q-165 0 -280 84zM592 125v104l246 410h272v-379h107v-135h-107v-125h-190v125h-328zM723 870l332 408l153 -150l-381 -356zM786 260h134v45l10 203h-6l-70 -127z" />
<glyph unicode="&#xbf;" d="M211 -47q0 54 18.5 101.5t47.5 82t63.5 66.5t68.5 63t61 63t41 74.5t9 90.5h264q12 -76 -13 -141.5t-69 -111t-89.5 -85t-79 -81.5t-33.5 -83q0 -61 42 -95t109 -34q60 0 109 24t102 70l166 -152q-77 -87 -178.5 -136.5t-218.5 -49.5q-186 0 -303 86t-117 248zM440 831 q0 92 57.5 150.5t145.5 58.5q90 0 147.5 -58.5t57.5 -150.5q0 -90 -57.5 -147t-147.5 -57q-88 0 -145.5 57t-57.5 147z" />
<glyph unicode="&#xc0;" d="M18 0l416 1335h361l415 -1335h-319l-80 317h-403l-82 -317h-308zM283 1683h319l166 -245h-240zM469 553h281l-31 123q-20 77 -58 232t-49 198h-8q-74 -315 -104 -430z" />
<glyph unicode="&#xc1;" d="M18 0l416 1335h361l415 -1335h-319l-80 317h-403l-82 -317h-308zM461 1438l166 245h319l-246 -245h-239zM469 553h281l-31 123q-20 77 -58 232t-49 198h-8q-74 -315 -104 -430z" />
<glyph unicode="&#xc2;" d="M18 0l416 1335h361l415 -1335h-319l-80 317h-403l-82 -317h-308zM270 1438l197 245h295l196 -245h-231l-109 125h-8l-108 -125h-232zM469 553h281l-31 123q-20 77 -58 232t-49 198h-8q-74 -315 -104 -430z" />
<glyph unicode="&#xc3;" d="M18 0l416 1335h361l415 -1335h-319l-80 317h-403l-82 -317h-308zM266 1440q14 134 75 206t144 72q48 0 96 -23t86.5 -46t63.5 -23q59 0 78 92h154q-14 -134 -75.5 -206t-144.5 -72q-48 0 -95.5 23t-86 46t-63.5 23q-59 0 -78 -92h-154zM469 553h281l-31 123 q-20 77 -58 232t-49 198h-8q-74 -315 -104 -430z" />
<glyph unicode="&#xc4;" d="M18 0l416 1335h361l415 -1335h-319l-80 317h-403l-82 -317h-308zM268 1577q0 62 40.5 102.5t103.5 40.5t103 -40.5t40 -102.5t-40 -102.5t-103 -40.5t-103.5 40.5t-40.5 102.5zM469 553h281l-31 123q-20 77 -58 232t-49 198h-8q-74 -315 -104 -430zM674 1577 q0 62 40 102.5t103 40.5t103.5 -40.5t40.5 -102.5t-40.5 -102.5t-103.5 -40.5t-103 40.5t-40 102.5z" />
<glyph unicode="&#xc5;" d="M18 0l416 1335h361l415 -1335h-319l-80 317h-403l-82 -317h-308zM383 1628q0 90 64 145.5t167 55.5t167.5 -55.5t64.5 -145.5q0 -91 -64 -146t-168 -55t-167.5 54.5t-63.5 146.5zM469 553h281l-31 123q-20 77 -58 232t-49 198h-8q-74 -315 -104 -430zM530 1628 q0 -40 24 -64t60 -24q35 0 58.5 24t23.5 64q0 39 -23.5 63.5t-58.5 24.5q-36 0 -60 -24.5t-24 -63.5z" />
<glyph unicode="&#xc6;" d="M-6 0l428 1335h778v-254h-297v-264h242v-254h-242v-309h316v-254h-582v305h-242l-92 -305h-309zM465 539h172v569h-6q-20 -77 -60 -211.5t-49 -167.5z" />
<glyph unicode="&#xc7;" d="M113 659q0 162 49.5 295.5t135.5 221.5t202 136t250 48q221 0 395 -170l-166 -186q-106 96 -229 96q-144 0 -236 -116.5t-92 -313.5q0 -202 93.5 -318t246.5 -116q129 0 237 118l166 -182q-151 -177 -372 -195l-29 -65q121 -40 121 -152q0 -99 -102.5 -152t-262.5 -61 l-22 121q170 17 170 90q0 56 -119 86l72 142q-109 19 -200.5 72t-160.5 135.5t-108 202t-39 263.5z" />
<glyph unicode="&#xc8;" d="M193 0v1335h880v-254h-579v-268h491v-252h-491v-307h600v-254h-901zM326 1683h321l164 -245h-240z" />
<glyph unicode="&#xc9;" d="M193 0v1335h880v-254h-579v-268h491v-252h-491v-307h600v-254h-901zM506 1438l164 245h321l-246 -245h-239z" />
<glyph unicode="&#xca;" d="M193 0v1335h880v-254h-579v-268h491v-252h-491v-307h600v-254h-901zM315 1438l197 245h293l196 -245h-229l-108 125h-9l-110 -125h-230z" />
<glyph unicode="&#xcb;" d="M193 0v1335h880v-254h-579v-268h491v-252h-491v-307h600v-254h-901zM313 1577q0 62 39.5 102.5t102.5 40.5q64 0 103.5 -40.5t39.5 -102.5t-39.5 -102.5t-103.5 -40.5q-63 0 -102.5 40.5t-39.5 102.5zM719 1577q0 62 40 102.5t103 40.5t102.5 -40.5t39.5 -102.5 t-39.5 -102.5t-102.5 -40.5t-103 40.5t-40 102.5z" />
<glyph unicode="&#xcc;" d="M152 0v254h311v827h-311v254h925v-254h-311v-827h311v-254h-925zM283 1683h319l166 -245h-240z" />
<glyph unicode="&#xcd;" d="M152 0v254h311v827h-311v254h925v-254h-311v-827h311v-254h-925zM461 1438l166 245h319l-246 -245h-239z" />
<glyph unicode="&#xce;" d="M152 0v254h311v827h-311v254h925v-254h-311v-827h311v-254h-925zM270 1438l197 245h295l196 -245h-231l-109 125h-8l-108 -125h-232z" />
<glyph unicode="&#xcf;" d="M152 0v254h311v827h-311v254h925v-254h-311v-827h311v-254h-925zM268 1577q0 62 40.5 102.5t103.5 40.5t103 -40.5t40 -102.5t-40 -102.5t-103 -40.5t-103.5 40.5t-40.5 102.5zM674 1577q0 62 40 102.5t103 40.5t103.5 -40.5t40.5 -102.5t-40.5 -102.5t-103.5 -40.5 t-103 40.5t-40 102.5z" />
<glyph unicode="&#xd0;" d="M4 616v136l141 10v573h365q300 0 470.5 -164t170.5 -497t-169 -503.5t-456 -170.5h-381v616h-141zM449 244h43q350 0 350 430q0 117 -25 199.5t-73 129.5t-109.5 68t-142.5 21h-43v-330h219v-146h-219v-372z" />
<glyph unicode="&#xd1;" d="M135 0v1335h307l283 -665l115 -293h8q-3 34 -16 142.5t-20 190.5t-7 152v473h289v-1335h-308l-282 666l-115 290h-8q4 -43 16.5 -145.5t19.5 -184.5t7 -153v-473h-289zM279 1440q14 134 75 206t144 72q48 0 95.5 -23t86 -46t63.5 -23q59 0 78 92h154q-14 -134 -75 -206 t-144 -72q-48 0 -96 23t-86.5 46t-63.5 23q-59 0 -78 -92h-153z" />
<glyph unicode="&#xd2;" d="M78 674q0 322 147 504t389 182t389.5 -183t147.5 -503q0 -323 -148 -511t-389 -188t-388.5 188t-147.5 511zM283 1683h319l166 -245h-240zM387 674q0 -201 61.5 -319.5t165.5 -118.5t166 118.5t62 319.5q0 198 -61.5 312t-166.5 114t-166 -113.5t-61 -312.5z" />
<glyph unicode="&#xd3;" d="M78 674q0 322 147 504t389 182t389.5 -183t147.5 -503q0 -323 -148 -511t-389 -188t-388.5 188t-147.5 511zM387 674q0 -201 61.5 -319.5t165.5 -118.5t166 118.5t62 319.5q0 198 -61.5 312t-166.5 114t-166 -113.5t-61 -312.5zM461 1438l166 245h319l-246 -245h-239z " />
<glyph unicode="&#xd4;" d="M78 674q0 322 147 504t389 182t389.5 -183t147.5 -503q0 -323 -148 -511t-389 -188t-388.5 188t-147.5 511zM270 1438l197 245h295l196 -245h-231l-109 125h-8l-108 -125h-232zM387 674q0 -201 61.5 -319.5t165.5 -118.5t166 118.5t62 319.5q0 198 -61.5 312t-166.5 114 t-166 -113.5t-61 -312.5z" />
<glyph unicode="&#xd5;" d="M78 674q0 322 147 504t389 182t389.5 -183t147.5 -503q0 -323 -148 -511t-389 -188t-388.5 188t-147.5 511zM266 1440q14 134 75 206t144 72q48 0 96 -23t86.5 -46t63.5 -23q59 0 78 92h154q-14 -134 -75.5 -206t-144.5 -72q-48 0 -95.5 23t-86 46t-63.5 23 q-59 0 -78 -92h-154zM387 674q0 -201 61.5 -319.5t165.5 -118.5t166 118.5t62 319.5q0 198 -61.5 312t-166.5 114t-166 -113.5t-61 -312.5z" />
<glyph unicode="&#xd6;" d="M78 674q0 322 147 504t389 182t389.5 -183t147.5 -503q0 -323 -148 -511t-389 -188t-388.5 188t-147.5 511zM268 1577q0 62 40.5 102.5t103.5 40.5t103 -40.5t40 -102.5t-40 -102.5t-103 -40.5t-103.5 40.5t-40.5 102.5zM387 674q0 -201 61.5 -319.5t165.5 -118.5 t166 118.5t62 319.5q0 198 -61.5 312t-166.5 114t-166 -113.5t-61 -312.5zM674 1577q0 62 40 102.5t103 40.5t103.5 -40.5t40.5 -102.5t-40.5 -102.5t-103.5 -40.5t-103 40.5t-40 102.5z" />
<glyph unicode="&#xd7;" d="M172 381l291 293l-291 295l150 151l292 -295l293 295l150 -151l-291 -295l291 -293l-150 -152l-293 295l-292 -295z" />
<glyph unicode="&#xd8;" d="M61 18l132 191q-115 182 -115 465q0 322 147 504t389 182q173 0 304 -98l108 157l160 -102l-139 -203q104 -173 104 -440q0 -323 -148 -511t-389 -188q-165 0 -288 91l-105 -150zM387 674q0 -90 12 -164l357 516q-58 74 -142 74q-105 0 -166 -113.5t-61 -312.5zM485 299 q54 -63 129 -63q104 0 166 118.5t62 319.5q0 79 -8 131z" />
<glyph unicode="&#xd9;" d="M131 514v821h301v-852q0 -247 186 -247q189 0 189 247v852h291v-821q0 -263 -120 -401t-360 -138q-242 0 -364.5 138.5t-122.5 400.5zM283 1683h319l166 -245h-240z" />
<glyph unicode="&#xda;" d="M131 514v821h301v-852q0 -247 186 -247q189 0 189 247v852h291v-821q0 -263 -120 -401t-360 -138q-242 0 -364.5 138.5t-122.5 400.5zM461 1438l166 245h319l-246 -245h-239z" />
<glyph unicode="&#xdb;" d="M131 514v821h301v-852q0 -247 186 -247q189 0 189 247v852h291v-821q0 -263 -120 -401t-360 -138q-242 0 -364.5 138.5t-122.5 400.5zM270 1438l197 245h295l196 -245h-231l-109 125h-8l-108 -125h-232z" />
<glyph unicode="&#xdc;" d="M131 514v821h301v-852q0 -247 186 -247q189 0 189 247v852h291v-821q0 -263 -120 -401t-360 -138q-242 0 -364.5 138.5t-122.5 400.5zM268 1577q0 62 40.5 102.5t103.5 40.5t103 -40.5t40 -102.5t-40 -102.5t-103 -40.5t-103.5 40.5t-40.5 102.5zM674 1577q0 62 40 102.5 t103 40.5t103.5 -40.5t40.5 -102.5t-40.5 -102.5t-103.5 -40.5t-103 40.5t-40 102.5z" />
<glyph unicode="&#xdd;" d="M33 1335h323l136 -321q21 -54 61 -155.5t59 -149.5h9q13 33 56.5 139.5t67.5 165.5l136 321h315l-430 -884v-451h-303v451zM461 1438l166 245h319l-246 -245h-239z" />
<glyph unicode="&#xde;" d="M150 0v1335h301v-202h186q114 0 204.5 -22t164 -70t113.5 -133t40 -203q0 -115 -41.5 -203.5t-114 -142t-165 -80.5t-201.5 -27h-186v-252h-301zM451 492h167q244 0 244 213q0 101 -60 144.5t-184 43.5h-167v-401z" />
<glyph unicode="&#xdf;" d="M125 0v1014q0 199 119.5 322.5t345.5 123.5q96 0 171.5 -29t121.5 -78t70 -110t24 -129q0 -66 -19.5 -123.5t-43 -91t-43 -72.5t-19.5 -73q0 -31 23.5 -59t58.5 -49.5t76.5 -52.5t76.5 -65t58.5 -90.5t23.5 -126.5q0 -146 -93.5 -241t-262.5 -95q-81 0 -146.5 18.5 t-138.5 57.5l101 205q88 -57 174 -57q40 0 64 24t24 64q0 36 -23.5 67.5t-59 53.5t-76.5 51.5t-76.5 60.5t-59 82.5t-23.5 114.5q0 45 12.5 86.5t30.5 74t36.5 64.5t31 72.5t12.5 83.5q0 54 -29 89.5t-79 35.5q-81 0 -121.5 -60t-40.5 -168v-995h-301z" />
<glyph unicode="&#xe0;" d="M125 283q0 172 156.5 260t513.5 110q-8 71 -62 109.5t-155 38.5q-120 0 -310 -94l-106 196q238 137 475 137q219 0 339 -115t120 -343v-582h-246l-23 115h-8q-183 -140 -360 -140q-151 0 -242.5 88t-91.5 220zM309 1518h307l183 -342h-219zM414 305q0 -96 141 -96 q114 0 240 96v168q-144 -8 -231 -32t-118.5 -56.5t-31.5 -79.5z" />
<glyph unicode="&#xe1;" d="M125 283q0 172 156.5 260t513.5 110q-8 71 -62 109.5t-155 38.5q-120 0 -310 -94l-106 196q238 137 475 137q219 0 339 -115t120 -343v-582h-246l-23 115h-8q-183 -140 -360 -140q-151 0 -242.5 88t-91.5 220zM414 305q0 -96 141 -96q114 0 240 96v168q-144 -8 -231 -32 t-118.5 -56.5t-31.5 -79.5zM463 1176l182 342h309l-270 -342h-221z" />
<glyph unicode="&#xe2;" d="M125 283q0 172 156.5 260t513.5 110q-8 71 -62 109.5t-155 38.5q-120 0 -310 -94l-106 196q238 137 475 137q219 0 339 -115t120 -343v-582h-246l-23 115h-8q-183 -140 -360 -140q-151 0 -242.5 88t-91.5 220zM299 1176l205 342h254l205 -342h-220l-108 194h-8l-109 -194 h-219zM414 305q0 -96 141 -96q114 0 240 96v168q-144 -8 -231 -32t-118.5 -56.5t-31.5 -79.5z" />
<glyph unicode="&#xe3;" d="M125 283q0 172 156.5 260t513.5 110q-8 71 -62 109.5t-155 38.5q-120 0 -310 -94l-106 196q238 137 475 137q219 0 339 -115t120 -343v-582h-246l-23 115h-8q-183 -140 -360 -140q-151 0 -242.5 88t-91.5 220zM281 1178q18 146 80.5 219t158.5 73q43 0 85.5 -26.5 t76.5 -53t57 -26.5q33 0 54 24t34 82h154q-18 -145 -81 -218.5t-159 -73.5q-34 0 -69 17t-57.5 37t-48 37t-44.5 17q-33 0 -54 -24t-34 -84h-153zM414 305q0 -96 141 -96q114 0 240 96v168q-144 -8 -231 -32t-118.5 -56.5t-31.5 -79.5z" />
<glyph unicode="&#xe4;" d="M125 283q0 172 156.5 260t513.5 110q-8 71 -62 109.5t-155 38.5q-120 0 -310 -94l-106 196q238 137 475 137q219 0 339 -115t120 -343v-582h-246l-23 115h-8q-183 -140 -360 -140q-151 0 -242.5 88t-91.5 220zM248 1331q0 68 45 114t115 46t115.5 -46t45.5 -114 q0 -69 -45.5 -115.5t-115.5 -46.5t-115 46t-45 116zM414 305q0 -96 141 -96q114 0 240 96v168q-144 -8 -231 -32t-118.5 -56.5t-31.5 -79.5zM694 1331q0 68 45 114t115 46q71 0 116.5 -46t45.5 -114q0 -70 -45.5 -116t-116.5 -46q-70 0 -115 46t-45 116z" />
<glyph unicode="&#xe5;" d="M125 283q0 172 156.5 260t513.5 110q-8 71 -62 109.5t-155 38.5q-120 0 -310 -94l-106 196q238 137 475 137q219 0 339 -115t120 -343v-582h-246l-23 115h-8q-183 -140 -360 -140q-151 0 -242.5 88t-91.5 220zM401 1331q0 95 63.5 152t166.5 57t167 -57t64 -152t-64 -152 t-167 -57t-166.5 57t-63.5 152zM414 305q0 -96 141 -96q114 0 240 96v168q-144 -8 -231 -32t-118.5 -56.5t-31.5 -79.5zM547 1331q0 -42 24.5 -69t59.5 -27q36 0 60 27t24 69t-24 69t-60 27q-35 0 -59.5 -27t-24.5 -69z" />
<glyph unicode="&#xe6;" d="M33 283q0 153 111.5 240t349.5 132q-6 73 -33 109.5t-84 36.5q-42 0 -100 -19t-111 -51l-107 197q186 112 338 112q160 0 238 -149q54 77 114.5 113t147.5 36q101 0 174 -67.5t108 -176.5t35 -245q0 -68 -14 -131h-465q17 -103 65.5 -156t121.5 -53q80 0 159 53l103 -192 q-57 -45 -132 -71t-141 -26q-194 0 -309 158q-151 -158 -287 -158q-133 0 -207.5 87.5t-74.5 220.5zM303 307q0 -47 24.5 -72.5t69.5 -25.5q67 0 125 70q-20 55 -28 151l-2 43q-189 -41 -189 -166zM731 604h244q0 207 -107 207q-53 0 -90 -52.5t-47 -154.5z" />
<glyph unicode="&#xe7;" d="M137 508q0 123 47.5 225t129 168.5t187.5 102.5t224 36q116 0 215 -37t166 -100l-139 -186q-113 80 -226 80q-132 0 -213.5 -79t-81.5 -210t79 -210t206 -79q132 0 268 96l123 -190q-140 -118 -340 -145l-30 -68q120 -39 120 -152q0 -99 -102 -152t-260 -61l-23 121 q168 18 168 90q0 28 -26 49t-92 37l69 138q-211 29 -340 167t-129 359z" />
<glyph unicode="&#xe8;" d="M113 508q0 160 76.5 283.5t195.5 186t256 62.5q227 0 352 -136t125 -351q0 -58 -12 -133h-684q14 -109 94.5 -162t200.5 -53q124 0 262 69l98 -180q-86 -56 -193 -87.5t-208 -31.5q-118 0 -221 36.5t-179 103.5t-119.5 168.5t-43.5 224.5zM317 1518h310l180 -342h-219z M418 618h428q0 90 -50 141.5t-149 51.5q-85 0 -147 -49t-82 -144z" />
<glyph unicode="&#xe9;" d="M113 508q0 160 76.5 283.5t195.5 186t256 62.5q227 0 352 -136t125 -351q0 -58 -12 -133h-684q14 -109 94.5 -162t200.5 -53q124 0 262 69l98 -180q-86 -56 -193 -87.5t-208 -31.5q-118 0 -221 36.5t-179 103.5t-119.5 168.5t-43.5 224.5zM418 618h428q0 90 -50 141.5 t-149 51.5q-85 0 -147 -49t-82 -144zM473 1176l182 342h308l-271 -342h-219z" />
<glyph unicode="&#xea;" d="M113 508q0 160 76.5 283.5t195.5 186t256 62.5q227 0 352 -136t125 -351q0 -58 -12 -133h-684q14 -109 94.5 -162t200.5 -53q124 0 262 69l98 -180q-86 -56 -193 -87.5t-208 -31.5q-118 0 -221 36.5t-179 103.5t-119.5 168.5t-43.5 224.5zM307 1176l207 342h252l207 -342 h-219l-109 194h-8l-111 -194h-219zM418 618h428q0 90 -50 141.5t-149 51.5q-85 0 -147 -49t-82 -144z" />
<glyph unicode="&#xeb;" d="M113 508q0 160 76.5 283.5t195.5 186t256 62.5q227 0 352 -136t125 -351q0 -58 -12 -133h-684q14 -109 94.5 -162t200.5 -53q124 0 262 69l98 -180q-86 -56 -193 -87.5t-208 -31.5q-118 0 -221 36.5t-179 103.5t-119.5 168.5t-43.5 224.5zM254 1331q0 68 46 114t116 46 t114.5 -46t44.5 -114q0 -70 -44.5 -116t-114.5 -46t-116 46.5t-46 115.5zM418 618h428q0 90 -50 141.5t-149 51.5q-85 0 -147 -49t-82 -144zM702 1331q0 68 45 114t115 46t116 -46t46 -114q0 -69 -46 -115.5t-116 -46.5t-115 46t-45 116z" />
<glyph unicode="&#xec;" d="M162 780v236h708v-1016h-301v780h-407zM385 1518h307l182 -342h-219z" />
<glyph unicode="&#xed;" d="M162 780v236h708v-1016h-301v780h-407zM539 1176l182 342h309l-272 -342h-219z" />
<glyph unicode="&#xee;" d="M162 780v236h708v-1016h-301v780h-407zM375 1176l205 342h254l204 -342h-219l-108 194h-9l-108 -194h-219z" />
<glyph unicode="&#xef;" d="M162 780v236h708v-1016h-301v780h-407zM322 1331q0 68 45.5 114t115.5 46t115 -46t45 -114q0 -70 -45 -116t-115 -46t-115.5 46.5t-45.5 115.5zM770 1331q0 68 45 114t115 46t116 -46t46 -114q0 -69 -46 -115.5t-116 -46.5t-115 46t-45 116z" />
<glyph unicode="&#xf0;" d="M96 467q0 107 37 196t100 147t144.5 90t171.5 32q165 0 258 -113q-56 177 -201 307l-305 -153l-78 133l246 123q-81 53 -193 104l132 183q170 -77 297 -168l278 141l78 -133l-227 -115q292 -272 292 -696q0 -253 -140.5 -411.5t-381.5 -158.5q-103 0 -195.5 35t-162 97.5 t-110 156t-40.5 203.5zM371 467q0 -117 69 -182.5t174 -65.5q108 0 170 79t62 230q0 47 -2 70q-97 111 -234 111q-113 0 -176 -61t-63 -181z" />
<glyph unicode="&#xf1;" d="M147 0v1016h246l23 -135h8q163 159 350 159q168 0 250 -107.5t82 -305.5v-627h-301v588q0 103 -34 149.5t-116 46.5q-58 0 -103 -24.5t-103 -81.5v-678h-302zM295 1178q18 146 81 219t159 73q43 0 85.5 -26.5t76.5 -53t57 -26.5q33 0 54 24t34 82h153 q-18 -145 -80.5 -218.5t-158.5 -73.5q-44 0 -86.5 27t-76 54t-56.5 27q-33 0 -54 -24t-34 -84h-154z" />
<glyph unicode="&#xf2;" d="M96 508q0 123 43 225t115.5 168.5t165.5 102.5t194 36t194 -36.5t165.5 -102.5t116 -168t43.5 -225t-43.5 -225.5t-116 -168.5t-165.5 -102.5t-194 -36.5t-194 36.5t-165.5 102.5t-115.5 168.5t-43 225.5zM293 1518h307l182 -342h-219zM406 508q0 -135 53 -212t155 -77 t155.5 77t53.5 212t-53.5 212t-155.5 77t-155 -77t-53 -212z" />
<glyph unicode="&#xf3;" d="M96 508q0 123 43 225t115.5 168.5t165.5 102.5t194 36t194 -36.5t165.5 -102.5t116 -168t43.5 -225t-43.5 -225.5t-116 -168.5t-165.5 -102.5t-194 -36.5t-194 36.5t-165.5 102.5t-115.5 168.5t-43 225.5zM406 508q0 -135 53 -212t155 -77t155.5 77t53.5 212t-53.5 212 t-155.5 77t-155 -77t-53 -212zM446 1176l183 342h307l-270 -342h-220z" />
<glyph unicode="&#xf4;" d="M96 508q0 123 43 225t115.5 168.5t165.5 102.5t194 36t194 -36.5t165.5 -102.5t116 -168t43.5 -225t-43.5 -225.5t-116 -168.5t-165.5 -102.5t-194 -36.5t-194 36.5t-165.5 102.5t-115.5 168.5t-43 225.5zM283 1176l204 342h254l205 -342h-219l-109 194h-8l-108 -194 h-219zM406 508q0 -135 53 -212t155 -77t155.5 77t53.5 212t-53.5 212t-155.5 77t-155 -77t-53 -212z" />
<glyph unicode="&#xf5;" d="M96 508q0 123 43 225t115.5 168.5t165.5 102.5t194 36t194 -36.5t165.5 -102.5t116 -168t43.5 -225t-43.5 -225.5t-116 -168.5t-165.5 -102.5t-194 -36.5t-194 36.5t-165.5 102.5t-115.5 168.5t-43 225.5zM264 1178q18 146 81 219t159 73q43 0 85.5 -26.5t76.5 -53 t57 -26.5q33 0 54 24t34 82h154q-18 -145 -81 -218.5t-159 -73.5q-34 0 -69 17t-57.5 37t-48 37t-44.5 17q-33 0 -54 -24t-34 -84h-154zM406 508q0 -135 53 -212t155 -77t155.5 77t53.5 212t-53.5 212t-155.5 77t-155 -77t-53 -212z" />
<glyph unicode="&#xf6;" d="M96 508q0 123 43 225t115.5 168.5t165.5 102.5t194 36t194 -36.5t165.5 -102.5t116 -168t43.5 -225t-43.5 -225.5t-116 -168.5t-165.5 -102.5t-194 -36.5t-194 36.5t-165.5 102.5t-115.5 168.5t-43 225.5zM229 1331q0 68 46 114t116 46t115 -46t45 -114q0 -70 -45 -116 t-115 -46t-116 46.5t-46 115.5zM406 508q0 -135 53 -212t155 -77t155.5 77t53.5 212t-53.5 212t-155.5 77t-155 -77t-53 -212zM678 1331q0 68 45 114t115 46t115.5 -46t45.5 -114q0 -69 -45.5 -115.5t-115.5 -46.5t-115 46t-45 116z" />
<glyph unicode="&#xf7;" d="M143 569v213h942v-213h-942zM449 307q0 69 47 113.5t118 44.5t118.5 -44.5t47.5 -113.5q0 -68 -47.5 -112.5t-118.5 -44.5t-118 44t-47 113zM449 1044q0 69 47 113.5t118 44.5t118.5 -44.5t47.5 -113.5q0 -68 -47.5 -112.5t-118.5 -44.5t-118 44t-47 113z" />
<glyph unicode="&#xf8;" d="M96 508q0 123 43 225t115.5 168.5t165.5 102.5t194 36q158 0 283 -79l92 110l113 -88l-96 -115q127 -147 127 -360q0 -123 -43.5 -225.5t-116 -168.5t-165.5 -102.5t-194 -36.5q-154 0 -284 82l-90 -108l-113 86l94 115q-125 145 -125 358zM406 508q0 -71 14 -123 l315 381q-50 41 -121 41q-101 0 -154.5 -81.5t-53.5 -217.5zM492 252q53 -43 122 -43q101 0 155 81.5t54 217.5q0 73 -14 125z" />
<glyph unicode="&#xf9;" d="M127 389v627h301v-588q0 -105 32.5 -151t114.5 -46q58 0 103 25.5t96 91.5v668h301v-1016h-246l-22 145h-8q-150 -170 -342 -170q-168 0 -249 107.5t-81 306.5zM283 1518h309l180 -342h-219z" />
<glyph unicode="&#xfa;" d="M127 389v627h301v-588q0 -105 32.5 -151t114.5 -46q58 0 103 25.5t96 91.5v668h301v-1016h-246l-22 145h-8q-150 -170 -342 -170q-168 0 -249 107.5t-81 306.5zM438 1176l183 342h307l-271 -342h-219z" />
<glyph unicode="&#xfb;" d="M127 389v627h301v-588q0 -105 32.5 -151t114.5 -46q58 0 103 25.5t96 91.5v668h301v-1016h-246l-22 145h-8q-150 -170 -342 -170q-168 0 -249 107.5t-81 306.5zM272 1176l207 342h252l207 -342h-219l-109 194h-8l-110 -194h-220z" />
<glyph unicode="&#xfc;" d="M127 389v627h301v-588q0 -105 32.5 -151t114.5 -46q58 0 103 25.5t96 91.5v668h301v-1016h-246l-22 145h-8q-150 -170 -342 -170q-168 0 -249 107.5t-81 306.5zM221 1331q0 68 45.5 114t116.5 46q70 0 115 -46t45 -114q0 -70 -45 -116t-115 -46q-71 0 -116.5 46 t-45.5 116zM668 1331q0 68 45 114t116 46q70 0 115 -46t45 -114q0 -70 -45 -116t-115 -46q-71 0 -116 46t-45 116z" />
<glyph unicode="&#xfd;" d="M63 1016h299l170 -436q40 -104 103 -306h8q19 72 92 306l150 436h284l-401 -1026q-77 -202 -183.5 -294.5t-291.5 -92.5q-84 0 -156 20l53 230q44 -13 80 -13q158 0 213 133l21 54zM461 1176l182 342h307l-270 -342h-219z" />
<glyph unicode="&#xfe;" d="M147 -377v1813h302v-357l-9 -155q129 116 285 116q188 0 298 -140t110 -376q0 -126 -37.5 -232t-99.5 -174t-140 -105.5t-162 -37.5q-129 0 -252 111l7 -166v-297h-302zM449 289q76 -68 174 -68q88 0 144 75t56 224q0 138 -45.5 206.5t-142.5 68.5q-95 0 -186 -95v-411z " />
<glyph unicode="&#xff;" d="M63 1016h299l170 -436q40 -104 103 -306h8q19 72 92 306l150 436h284l-401 -1026q-77 -202 -183.5 -294.5t-291.5 -92.5q-84 0 -156 20l53 230q44 -13 80 -13q158 0 213 133l21 54zM244 1331q0 68 46 114t116 46t114.5 -46t44.5 -114q0 -70 -44.5 -116t-114.5 -46 t-116 46.5t-46 115.5zM692 1331q0 68 45 114t115 46t116 -46t46 -114q0 -69 -46 -115.5t-116 -46.5t-115 46t-45 116z" />
<glyph unicode="&#x152;" d="M39 674q0 168 42.5 296t119 207t178 118.5t225.5 39.5h594v-252h-328v-270h248v-252h-248v-307h349v-254h-631q-120 0 -219 41.5t-173.5 123t-115.5 211.5t-41 298zM348 674q0 -232 56.5 -331t164.5 -99h33v848h-33q-53 0 -92 -20.5t-69 -67.5t-45 -129.5t-15 -200.5z " />
<glyph unicode="&#x153;" d="M25 508q0 246 109 389t272 143q166 0 247 -176q41 84 105 130t139 46q98 0 171 -67.5t108.5 -177t35.5 -244.5q0 -63 -12 -131h-455q17 -103 64.5 -156t120.5 -53q75 0 151 53l103 -192q-58 -45 -130 -71t-136 -26q-80 0 -149.5 41.5t-113.5 116.5q-46 -79 -107 -118.5 t-149 -39.5q-162 0 -268 143t-106 390zM295 508q0 -136 32 -213.5t95 -77.5q55 0 85 78.5t30 212.5t-30 212.5t-85 78.5q-63 0 -95 -77.5t-32 -213.5zM741 604h234q0 207 -101 207q-54 0 -89 -52t-44 -155z" />
<glyph unicode="&#x178;" d="M33 1335h323l136 -321q21 -54 61 -155.5t59 -149.5h9q13 33 56.5 139.5t67.5 165.5l136 321h315l-430 -884v-451h-303v451zM268 1577q0 62 40.5 102.5t103.5 40.5t103 -40.5t40 -102.5t-40 -102.5t-103 -40.5t-103.5 40.5t-40.5 102.5zM674 1577q0 62 40 102.5t103 40.5 t103.5 -40.5t40.5 -102.5t-40.5 -102.5t-103.5 -40.5t-103 40.5t-40 102.5z" />
<glyph unicode="&#x2c6;" d="M283 1176l204 342h254l205 -342h-219l-109 194h-8l-108 -194h-219z" />
<glyph unicode="&#x2dc;" d="M264 1178q18 146 81 219t159 73q43 0 85.5 -26.5t76.5 -53t57 -26.5q33 0 54 24t34 82h154q-18 -145 -81 -218.5t-159 -73.5q-34 0 -69 17t-57.5 37t-48 37t-44.5 17q-33 0 -54 -24t-34 -84h-154z" />
<glyph unicode="&#x2000;" horiz-adv-x="914" />
<glyph unicode="&#x2001;" horiz-adv-x="1829" />
<glyph unicode="&#x2002;" horiz-adv-x="914" />
<glyph unicode="&#x2003;" horiz-adv-x="1829" />
<glyph unicode="&#x2004;" horiz-adv-x="609" />
<glyph unicode="&#x2005;" horiz-adv-x="457" />
<glyph unicode="&#x2006;" horiz-adv-x="304" />
<glyph unicode="&#x2007;" horiz-adv-x="304" />
<glyph unicode="&#x2008;" horiz-adv-x="228" />
<glyph unicode="&#x2009;" horiz-adv-x="365" />
<glyph unicode="&#x200a;" horiz-adv-x="101" />
<glyph unicode="&#x2010;" d="M143 569v213h942v-213h-942z" />
<glyph unicode="&#x2011;" d="M143 569v213h942v-213h-942z" />
<glyph unicode="&#x2012;" d="M143 569v213h942v-213h-942z" />
<glyph unicode="&#x2013;" d="M164 408v227h901v-227h-901z" />
<glyph unicode="&#x2014;" d="M41 408v227h1147v-227h-1147z" />
<glyph unicode="&#x2018;" d="M377 922q0 342 358 505l78 -159q-215 -99 -229 -287q21 6 43 6q82 0 134 -51t52 -135q0 -93 -55 -150t-142 -57q-114 0 -176.5 86t-62.5 242z" />
<glyph unicode="&#x2019;" d="M414 754q214 96 229 284q-21 -6 -41 -6q-84 0 -136 52t-52 137q0 93 55 149.5t141 56.5q115 0 177.5 -86t62.5 -241q0 -343 -356 -506z" />
<glyph unicode="&#x201a;" d="M414 154q0 93 55 149.5t141 56.5q115 0 177.5 -86t62.5 -241q0 -343 -356 -506l-80 158q215 100 229 284q-28 -4 -41 -4q-84 0 -136 52.5t-52 136.5z" />
<glyph unicode="&#x201c;" d="M104 922q0 342 359 505l78 -159q-109 -50 -166 -120t-64 -167q21 6 43 6q83 0 135 -51t52 -135q0 -93 -55 -150t-142 -57q-114 0 -177 86.5t-63 241.5zM649 922q0 342 359 505l77 -159q-215 -99 -229 -287q21 6 43 6q82 0 134 -51t52 -135q0 -93 -54.5 -150t-141.5 -57 q-114 0 -177 86.5t-63 241.5z" />
<glyph unicode="&#x201d;" d="M141 754q215 96 230 282q-28 -4 -41 -4q-84 0 -136.5 52.5t-52.5 136.5q0 93 55.5 149.5t141.5 56.5q115 0 177.5 -86t62.5 -241q0 -342 -357 -506zM686 754q214 96 229 284q-24 -6 -43 -6q-82 0 -134 52.5t-52 136.5q0 93 55.5 149.5t141.5 56.5q115 0 177 -86t62 -241 q0 -343 -356 -506z" />
<glyph unicode="&#x201e;" d="M141 154q0 93 55.5 149.5t141.5 56.5q115 0 177.5 -86t62.5 -241q0 -168 -90 -296.5t-267 -209.5l-80 158q216 101 228 284q-24 -4 -39 -4q-84 0 -136.5 52.5t-52.5 136.5zM686 154q0 93 55.5 149.5t141.5 56.5q115 0 177 -86t62 -241q0 -343 -356 -506l-80 158 q215 100 229 286q-24 -6 -43 -6q-82 0 -134 52.5t-52 136.5z" />
<glyph unicode="&#x2022;" d="M279 537q0 141 96 235t239 94t239.5 -94t96.5 -235t-96.5 -235.5t-239.5 -94.5t-239 94.5t-96 235.5z" />
<glyph unicode="&#x2026;" d="M-2 172q0 85 52 141t136 56q85 0 137 -56t52 -141t-52 -141t-137 -56q-84 0 -136 56t-52 141zM426 172q0 85 52 141t136 56t136.5 -56.5t52.5 -140.5t-52.5 -140.5t-136.5 -56.5t-136 56t-52 141zM854 172q0 85 51.5 141t136.5 56q84 0 136.5 -56.5t52.5 -140.5 t-52.5 -140.5t-136.5 -56.5q-85 0 -136.5 56t-51.5 141z" />
<glyph unicode="&#x202f;" horiz-adv-x="365" />
<glyph unicode="&#x2039;" d="M358 367v299l351 315l127 -113l-261 -352l261 -352l-127 -113z" />
<glyph unicode="&#x203a;" d="M393 164l260 352l-260 352l127 113l350 -315v-299l-350 -316z" />
<glyph unicode="&#x205f;" horiz-adv-x="457" />
<glyph unicode="&#x20ac;" d="M92 440v142l113 8q-2 18 -2 53t2 53h-113v140l131 10q51 227 205 353t375 126q104 0 202 -42t173 -118l-166 -161q-109 88 -219 88q-103 0 -171 -63t-98 -181h518v-152h-538v-43q0 -41 2 -59h455v-154h-431q32 -113 100.5 -172t168.5 -59q133 0 229 110l166 -155 q-173 -189 -414 -189q-211 0 -359.5 120.5t-197.5 344.5h-131z" />
<glyph unicode="&#x2122;" d="M-27 1206v178h519v-178h-160v-465h-197v465h-162zM563 741v643h211l70 -192l43 -145h8l41 145l70 192h211v-643h-173v197l23 236h-8l-109 -304h-119l-110 304h-8l22 -236v-197h-172z" />
<glyph unicode="&#x25fc;" horiz-adv-x="1013" d="M0 0v1014h1014v-1014h-1014z" />
<glyph unicode="&#xfb01;" d="M14 780v224l136 10v55q0 84 20.5 152.5t63.5 123t116.5 85t173.5 30.5q99 0 203 -37l-55 -221q-58 21 -105 21q-116 0 -116 -146v-61h184v-236h-184v-780h-301v780h-136zM774 1354q0 83 58.5 135.5t148.5 52.5q91 0 150 -52.5t59 -135.5t-59 -136t-150 -53 q-90 0 -148.5 53t-58.5 136zM834 0v1016h301v-1016h-301z" />
<glyph unicode="&#xfb02;" d="M23 780v224l135 10v55q0 84 20.5 152.5t63.5 123t116.5 85t173.5 30.5q99 0 203 -37l-55 -221q-58 21 -105 21q-116 0 -116 -146v-61h184v-236h-184v-780h-301v780h-135zM805 315v1121h301v-1133q0 -43 16.5 -63.5t38.5 -20.5q19 0 37 4l35 -223q-59 -25 -152 -25 q-148 0 -212 88t-64 252z" />
</font>
</defs>
</svg>
